(Melodic Hard Rock) [CD] Danger Danger - Albums Collection 1989, 1991 (BSCD2) - 2014 (Sony Music Japan), FLAC (image+.cue), lossless

Страницы:  1
Ответить
Автор
Сообщение

allekkss48

Стаж: 9 лет 6 месяцев

Сообщений: 673


allekkss48 · 04-Окт-14 14:19 (4 года 10 месяцев назад, ред. 30-Мар-17 16:07)

Danger Danger - Albums Collection 1989, 1991
Жанр: Melodic Hard Rock
Страна-производитель диска: Japan
Год издания диска: 2014
Издатель (лейбл): Sony Music Entertainment / Sony Music Japan
Номер по каталогу: SICP 30670~71
Страна: USA
Аудио кодек: FLAC (*.flac)
Тип рипа: image+.cue
Битрейт аудио: lossless
Продолжительность: 02:24:49
Источник (релизер): allekkss48
Наличие сканов в содержимом раздачи:
Треклист:
1989 - Danger Danger (01:05:28)
01. Naughty Naughty 04:50
02. Under The Gun 04:39
03. Saturday Nite 04:17
04. Don't Walk Away 04:56
05. Bang Bang 03:56
06. Rock America 04:54
07. Boys Will Be Boys 04:58
08. One Step From Paradise 04:47
09. Feels Like Love 04:52
10. Turn It On 03:40
11. Live It Up 03:57
Bonus Tracks:
12. Bang Bang (Live) 04:49
13. Naughty Naughty (Live) 06:30
14. Rock 'N' Roll Hoochie Koo (Live) 04:15
Лог создания рипа
Exact Audio Copy V1.0 beta 3 from 29. August 2011
EAC extraction logfile from 28. September 2014, 13:27
Danger Danger / Danger Danger BSCD2
Used drive : PLEXTOR BD-R PX-B950SA Adapter: 6 ID: 0
Read mode : Secure
Utilize accurate stream : Yes
Defeat audio cache : Yes
Make use of C2 pointers : No
Read offset correction : 6
Overread into Lead-In and Lead-Out : No
Fill up missing offset samples with silence : Yes
Delete leading and trailing silent blocks : No
Null samples used in CRC calculations : Yes
Used interface : Native Win32 interface for Win NT & 2000
Used output format : Internal WAV Routines
Sample format : 44.100 Hz; 16 Bit; Stereo
TOC of the extracted CD
Track | Start | Length | Start sector | End sector
---------------------------------------------------------
1 | 0:00.00 | 4:50.34 | 0 | 21783
2 | 4:50.34 | 4:39.43 | 21784 | 42751
3 | 9:30.02 | 4:17.66 | 42752 | 62092
4 | 13:47.68 | 4:56.21 | 62093 | 84313
5 | 18:44.14 | 3:56.74 | 84314 | 102087
6 | 22:41.13 | 4:54.52 | 102088 | 124189
7 | 27:35.65 | 4:58.64 | 124190 | 146603
8 | 32:34.54 | 4:47.03 | 146604 | 168131
9 | 37:21.57 | 4:52.07 | 168132 | 190038
10 | 42:13.64 | 3:40.73 | 190039 | 206611
11 | 45:54.62 | 3:57.05 | 206612 | 224391
12 | 49:51.67 | 4:49.70 | 224392 | 246136
13 | 54:41.62 | 6:30.52 | 246137 | 275438
14 | 61:12.39 | 4:15.30 | 275439 | 294593
Range status and errors
Selected range
Filename C:\Users\Meijin\Desktop\Lossless Galaxy ALLexxess\Danger Danger\1989 Danger Danger (BSCD2 Sony Music Japan 2014)\Danger Danger - Danger Danger BSCD2.wav
Peak level 100.0 %
Extraction speed 8.4 X
Range quality 99.9 %
Test CRC A8A34F22
Copy CRC A8A34F22
Copy OK
No errors occurred
AccurateRip summary
Track 1 not present in database
Track 2 not present in database
Track 3 not present in database
Track 4 not present in database
Track 5 not present in database
Track 6 not present in database
Track 7 not present in database
Track 8 not present in database
Track 9 not present in database
Track 10 not present in database
Track 11 not present in database
Track 12 not present in database
Track 13 not present in database
Track 14 not present in database
None of the tracks are present in the AccurateRip database
End of status report
==== Log checksum 2FC73D8382BB800E4E610DEFAC3E13B2BFEA983A4DA94272E00EFCAE501E8DD2 ====
Содержание индексной карты (.CUE)
REM GENRE "Rock / Hard Rock / Glam"
REM DATE 1989
REM DISCID D80F570E
REM COMMENT "ExactAudioCopy v1.0b3"
PERFORMER "Danger Danger"
TITLE "Danger Danger BSCD2"
FILE "Danger Danger - Danger Danger BSCD2.flac" WAVE
TRACK 01 AUDIO
TITLE "Naughty Naughty"
PERFORMER "Danger Danger"
INDEX 01 00:00:00
TRACK 02 AUDIO
TITLE "Under The Gun"
PERFORMER "Danger Danger"
INDEX 01 04:50:34
TRACK 03 AUDIO
TITLE "Saturday Nite"
PERFORMER "Danger Danger"
INDEX 01 09:30:02
TRACK 04 AUDIO
TITLE "Don't Walk Away"
PERFORMER "Danger Danger"
INDEX 01 13:47:68
TRACK 05 AUDIO
TITLE "Bang Bang"
PERFORMER "Danger Danger"
INDEX 01 18:44:14
TRACK 06 AUDIO
TITLE "Rock America"
PERFORMER "Danger Danger"
INDEX 01 22:41:13
TRACK 07 AUDIO
TITLE "Boys Will Be Boys"
PERFORMER "Danger Danger"
INDEX 01 27:35:65
TRACK 08 AUDIO
TITLE "One Step From Paradise"
PERFORMER "Danger Danger"
INDEX 01 32:34:54
TRACK 09 AUDIO
TITLE "Feels Like Love"
PERFORMER "Danger Danger"
INDEX 01 37:21:57
TRACK 10 AUDIO
TITLE "Turn It On"
PERFORMER "Danger Danger"
INDEX 01 42:13:64
TRACK 11 AUDIO
TITLE "Live It Up"
PERFORMER "Danger Danger"
INDEX 01 45:54:62
TRACK 12 AUDIO
TITLE "Bang Bang (Live) / Bonus Track"
PERFORMER "Danger Danger"
INDEX 00 49:49:16
INDEX 01 49:51:67
TRACK 13 AUDIO
TITLE "Naughty Naughty (Live) / Bonus Track"
PERFORMER "Danger Danger"
INDEX 01 54:41:62
TRACK 14 AUDIO
TITLE "Rock 'N' Roll Hoochie Koo (Live) / Bonus Track"
PERFORMER "Danger Danger"
INDEX 01 61:12:39
Лог проверки качества
-----------------------
DON'T MODIFY THIS FILE
-----------------------
PERFORMER: auCDtect Task Manager, ver. 1.6.0 RC1 build 1.6.0.1
Copyright (c) 2008-2010 y-soft. All rights reserved
http://y-soft.org
ANALYZER: auCDtect: CD records authenticity detector, version 0.8.2
Copyright (c) 2004 Oleg Berngardt. All rights reserved.
Copyright (c) 2004 Alexander Djourik. All rights reserved.
FILE: Danger Danger - Danger Danger BSCD2.wav
Size: 692885132 Hash: 9AFCE80C9552C36007F457A49EBCE001 Accuracy: -m8
Conclusion: CDDA 100%
Signature: DB1C1DA35F50A1A4BA31398C0F3188F24AFEC939
FILE: Danger Danger - Danger Danger BSCD2.flac
Size: 499208023 Hash: 9AFCE80C9552C36007F457A49EBCE001 Accuracy: -m8
Conclusion: CDDA 100%
Signature: 8CC7C35ECBB9092320D885B7FF1932D6D856FAE9
Back, Disc, Matrix, Spectrogram
1991 - Screw It! (01:19:21)
01. Ginger Snaps (Intro) / Monkey Business 05:22
02. Slipped Her The Big One 05:23
03. C'Est Loupe (Prelude) / Beat The Bullet 04:53
04. I Still Think About You 04:36
05. Get Your Shit Together 04:41
06. Crazy Nites 04:13
07. Puppet Show 01:21
08. Everybody Wants Some 04:15
09. Don't Blame It On Love 03:57
10. Comin' Home 04:39
11. Horny S.O.B. 03:22
12. Find Your Way Back Home 06:14
13. Just What The Doctor Ordered 03:42
14. Yeah, You Want It! 03:34
15. D.F.N.S. 00:53
Bonus Tracks:
16. Groove Or Die (Live) 05:56
17. Boys Will Be Boys (Live) 06:12
Лог создания рипа
Exact Audio Copy V1.0 beta 3 from 29. August 2011
EAC extraction logfile from 28. September 2014, 12:54
Danger Danger / Screw It! BSCD2
Used drive : PLEXTOR BD-R PX-B950SA Adapter: 6 ID: 0
Read mode : Secure
Utilize accurate stream : Yes
Defeat audio cache : Yes
Make use of C2 pointers : No
Read offset correction : 6
Overread into Lead-In and Lead-Out : No
Fill up missing offset samples with silence : Yes
Delete leading and trailing silent blocks : No
Null samples used in CRC calculations : Yes
Used interface : Native Win32 interface for Win NT & 2000
Used output format : Internal WAV Routines
Sample format : 44.100 Hz; 16 Bit; Stereo
TOC of the extracted CD
Track | Start | Length | Start sector | End sector
---------------------------------------------------------
1 | 0:00.00 | 5:22.41 | 0 | 24190
2 | 5:22.41 | 5:23.13 | 24191 | 48428
3 | 10:45.54 | 4:53.12 | 48429 | 70415
4 | 15:38.66 | 4:36.35 | 70416 | 91150
5 | 20:15.26 | 4:41.17 | 91151 | 112242
6 | 24:56.43 | 4:13.27 | 112243 | 131244
7 | 29:09.70 | 1:21.22 | 131245 | 137341
8 | 30:31.17 | 4:15.55 | 137342 | 156521
9 | 34:46.72 | 3:57.70 | 156522 | 174366
10 | 38:44.67 | 4:39.36 | 174367 | 195327
11 | 43:24.28 | 3:22.72 | 195328 | 210549
12 | 46:47.25 | 6:14.09 | 210550 | 238608
13 | 53:01.34 | 3:42.49 | 238609 | 255307
14 | 56:44.08 | 3:34.59 | 255308 | 271416
15 | 60:18.67 | 0:53.04 | 271417 | 275395
16 | 61:11.71 | 5:56.18 | 275396 | 302113
17 | 67:08.14 | 6:12.68 | 302114 | 330081
Range status and errors
Selected range
Filename C:\Users\Meijin\Desktop\Lossless Galaxy ALLexxess\Danger Danger\1991 Screw It! (BSCD2 Sony Music Japan 2014)\Danger Danger - Screw It! BSCD2.wav
Peak level 100.0 %
Extraction speed 8.8 X
Range quality 100.0 %
Test CRC 4441E0D2
Copy CRC 4441E0D2
Copy OK
No errors occurred
AccurateRip summary
Track 1 not present in database
Track 2 not present in database
Track 3 not present in database
Track 4 not present in database
Track 5 not present in database
Track 6 not present in database
Track 7 not present in database
Track 8 not present in database
Track 9 not present in database
Track 10 not present in database
Track 11 not present in database
Track 12 not present in database
Track 13 not present in database
Track 14 not present in database
Track 15 not present in database
Track 16 not present in database
Track 17 not present in database
None of the tracks are present in the AccurateRip database
End of status report
==== Log checksum 4D21B7F55A99733219D520F1291559663129AFEC1FC1FA6C52C71C2CE6E627D2 ====
Содержание индексной карты (.CUE)
REM GENRE "Rock / Hard Rock / Glam"
REM DATE 1991
REM DISCID E8113111
REM COMMENT "ExactAudioCopy v1.0b3"
PERFORMER "Danger Danger"
TITLE "Screw It! BSCD2"
FILE "Danger Danger - Screw It! BSCD2.flac" WAVE
TRACK 01 AUDIO
TITLE "Ginger Snaps (Intro) / Monkey Business"
PERFORMER "Danger Danger"
INDEX 01 00:00:00
TRACK 02 AUDIO
TITLE "Slipped Her The Big One"
PERFORMER "Danger Danger"
INDEX 01 05:22:41
TRACK 03 AUDIO
TITLE "C'Est Loupe (Prelude) / Beat The Bullet"
PERFORMER "Danger Danger"
INDEX 01 10:45:54
TRACK 04 AUDIO
TITLE "I Still Think About You"
PERFORMER "Danger Danger"
INDEX 00 15:37:51
INDEX 01 15:38:66
TRACK 05 AUDIO
TITLE "Get Your Shit Together"
PERFORMER "Danger Danger"
INDEX 01 20:15:26
TRACK 06 AUDIO
TITLE "Crazy Nites"
PERFORMER "Danger Danger"
INDEX 01 24:56:43
TRACK 07 AUDIO
TITLE "Puppet Show"
PERFORMER "Danger Danger"
INDEX 00 29:08:19
INDEX 01 29:09:70
TRACK 08 AUDIO
TITLE "Everybody Wants Some"
PERFORMER "Danger Danger"
INDEX 01 30:31:17
TRACK 09 AUDIO
TITLE "Don't Blame It On Love"
PERFORMER "Danger Danger"
INDEX 01 34:46:72
TRACK 10 AUDIO
TITLE "Comin' Home"
PERFORMER "Danger Danger"
INDEX 01 38:44:67
TRACK 11 AUDIO
TITLE "Horny S.O.B."
PERFORMER "Danger Danger"
INDEX 01 43:24:28
TRACK 12 AUDIO
TITLE "Find Your Way Back Home"
PERFORMER "Danger Danger"
INDEX 01 46:47:25
TRACK 13 AUDIO
TITLE "Just What The Doctor Ordered"
PERFORMER "Danger Danger"
INDEX 01 53:01:34
TRACK 14 AUDIO
TITLE "Yeah, You Want It!"
PERFORMER "Danger Danger"
INDEX 01 56:44:08
TRACK 15 AUDIO
TITLE "D.F.N.S."
PERFORMER "Danger Danger"
INDEX 01 60:18:67
TRACK 16 AUDIO
TITLE "Groove Or Die (Live) / Bonus Track"
PERFORMER "Danger Danger"
INDEX 00 61:09:23
INDEX 01 61:11:71
TRACK 17 AUDIO
TITLE "Boys Will Be Boys (Live) / Bonus Track"
PERFORMER "Danger Danger"
INDEX 01 67:08:14
Лог проверки качества
-----------------------
DON'T MODIFY THIS FILE
-----------------------
PERFORMER: auCDtect Task Manager, ver. 1.6.0 RC1 build 1.6.0.1
Copyright (c) 2008-2010 y-soft. All rights reserved
http://y-soft.org
ANALYZER: auCDtect: CD records authenticity detector, version 0.8.2
Copyright (c) 2004 Oleg Berngardt. All rights reserved.
Copyright (c) 2004 Alexander Djourik. All rights reserved.
FILE: Danger Danger - Screw It! BSCD2.wav
Size: 776352908 Hash: 4FC74FC8E22896E12E940376A01161F1 Accuracy: -m8
Conclusion: CDDA 100%
Signature: FAF5D46474D293F1B2608F75E0742755F93A9497
FILE: Danger Danger - Screw It! BSCD2.flac
Size: 530975458 Hash: 4FC74FC8E22896E12E940376A01161F1 Accuracy: -m8
Conclusion: CDDA 100%
Signature: 9DF44727FF479DA35F8753EFB5D07B0E2FBACB86
Back, Disc, Matrix, Spectrogram
Доп. информация
Об издании
Performer:
Danger Danger
Albums:
1989 Danger Danger; 1991 Screw It!
(BSCD2 Sony Music Japan 2014)
Info:
Sony Music Entertainment / Sony Music Japan
Jewel Case / Blu-Spec CD2
Catalog BSCD2: SICP 30670 / SICP 30671
Made in Japan
Dynamic Range: 9 / 9
Released Year: 2014
Download
Сайт не распространяет и не хранит электронные версии произведений, а лишь предоставляет доступ к создаваемому пользователями каталогу ссылок на торрент-файлы, которые содержат только списки хеш-сумм
Как скачивать? (для скачивания .torrent файлов необходима регистрация)
[Профиль]  [ЛС] 
 
Ответить
Loading...
Error