(Rock) Jon Bon Jovi - Destination Anywhere - 1997, FLAC (tracks+.cue), lossless

Страницы:  1
Ответить
Автор
Сообщение

Xant1k

Top Seed 01* 40r

Стаж: 11 лет 3 месяца

Сообщений: 2992

Xant1k · 30-Мар-13 13:16 (6 лет 4 месяца назад, ред. 24-Окт-13 11:58)

Jon Bon Jovi ‎– Destination Anywhere Страна: USAЖанр: Rock
Производитель диска: JapanГод издания диска: 1997Номер по каталогу: PHCR-1520Аудио: FLAC (tracks+.cue)Источник: Open.CDСканы: Yes

Треклист
01. Queen Of New Orleans
02. Janie, Don't Take Your Love To Town
03. Midnight In Chelsea
04. Ugly
05. Staring At Your Window With A Suitcase In My Hand
06. Every Word Was A Piece Of My Heart
07. It's Just Me
08. Destination Anywhere
09. Learning How To Fall
10. Naked
11. Little City
12. August 7, 4:15
13. Cold Hard Heart (Demo) [Extra track for Japan]
14. I Talk To Jesus (Demo) [Extra track for Japan]
Продолжительность: 1:08:13
Лог создания рипа
Exact Audio Copy V1.0 beta 3 from 29. August 2011
EAC extraction logfile from 20. August 2012, 11:31
Jon Bon Jovi / Destination Anywhere (PHCR-1520)
Used drive : HL-DT-STDVDRAM GSA-T50N Adapter: 1 ID: 0
Read mode : Secure
Utilize accurate stream : Yes
Defeat audio cache : Yes
Make use of C2 pointers : No
Read offset correction : 667
Overread into Lead-In and Lead-Out : No
Fill up missing offset samples with silence : Yes
Delete leading and trailing silent blocks : No
Null samples used in CRC calculations : Yes
Used interface : Native Win32 interface for Win NT & 2000
Gap handling : Appended to previous track
Used output format : User Defined Encoder
Selected bitrate : 896 kBit/s
Quality : High
Add ID3 tag : No
Command line compressor : C:\Program Files (x86)\Exact Audio Copy\Flac\flac.exe
Additional command line options : -8 -V -T "ARTIST=%artist%" -T "TITLE=%title%" -T "ALBUM=%albumtitle%" -T "DATE=%year%" -T "TRACKNUMBER=%tracknr%" -T "GENRE=%genre%" -T "PERFORMER=%albuminterpret%" -T "COMPOSER=%composer%" %haslyrics%--tag-from-file=LYRICS="%lyricsfile%"%haslyrics% -T "ALBUMARTIST=%albumartist%" -T "DISCNUMBER=%cdnumber%" -T "TOTALDISCS=%totalcds%" -T "TOTALTRACKS=%numtracks%" -T "COMMENT=%comment%" %source% -o %dest%
TOC of the extracted CD
Track | Start | Length | Start sector | End sector
---------------------------------------------------------
1 | 0:00.37 | 4:30.42 | 37 | 20328
2 | 4:31.04 | 5:18.05 | 20329 | 44183
3 | 9:49.09 | 4:58.28 | 44184 | 66561
4 | 14:47.37 | 3:23.72 | 66562 | 81858
5 | 18:11.34 | 4:26.00 | 81859 | 101808
6 | 22:37.34 | 5:16.08 | 101809 | 125516
7 | 27:53.42 | 6:43.72 | 125517 | 155813
8 | 34:37.39 | 4:56.15 | 155814 | 178028
9 | 39:33.54 | 4:03.38 | 178029 | 196291
10 | 43:37.17 | 4:42.22 | 196292 | 217463
11 | 48:19.39 | 4:57.50 | 217464 | 239788
12 | 53:17.14 | 4:59.25 | 239789 | 262238
13 | 58:16.39 | 4:44.73 | 262239 | 283611
14 | 63:01.37 | 5:12.10 | 283612 | 307021
Track 1
Filename D:\CD\Destination Anywhere (PHCR-1520)\01 - Queen Of New Orleans.wav
Pre-gap length 0:00:02.49
Peak level 100.0 %
Extraction speed 2.2 X
Track quality 99.9 %
Test CRC 99C52B6E
Copy CRC 99C52B6E
Accurately ripped (confidence 5) [72FE4189] (AR v1)
Copy OK
Track 2
Filename D:\CD\Destination Anywhere (PHCR-1520)\02 - Janie, Don't Take Your Love To Town.wav
Pre-gap length 0:00:00.74
Peak level 100.0 %
Extraction speed 2.6 X
Track quality 99.9 %
Test CRC 1D2392E1
Copy CRC 1D2392E1
Accurately ripped (confidence 5) [4DD186F5] (AR v1)
Copy OK
Track 3
Filename D:\CD\Destination Anywhere (PHCR-1520)\03 - Midnight In Chelsea.wav
Pre-gap length 0:00:00.72
Peak level 100.0 %
Extraction speed 3.1 X
Track quality 100.0 %
Test CRC DBF4A98F
Copy CRC DBF4A98F
Accurately ripped (confidence 5) [D70F3554] (AR v1)
Copy OK
Track 4
Filename D:\CD\Destination Anywhere (PHCR-1520)\04 - Ugly.wav
Pre-gap length 0:00:00.58
Peak level 100.0 %
Extraction speed 3.2 X
Track quality 100.0 %
Test CRC F46D4633
Copy CRC F46D4633
Accurately ripped (confidence 5) [D7E885D9] (AR v1)
Copy OK
Track 5
Filename D:\CD\Destination Anywhere (PHCR-1520)\05 - Staring At Your Window With A Suitcase In My Hand.wav
Pre-gap length 0:00:00.05
Peak level 100.0 %
Extraction speed 3.5 X
Track quality 100.0 %
Test CRC 0218E8F1
Copy CRC 0218E8F1
Accurately ripped (confidence 5) [2769F9B6] (AR v1)
Copy OK
Track 6
Filename D:\CD\Destination Anywhere (PHCR-1520)\06 - Every Word Was A Piece Of My Heart.wav
Pre-gap length 0:00:00.28
Peak level 100.0 %
Extraction speed 3.8 X
Track quality 100.0 %
Test CRC BD2C7ACC
Copy CRC BD2C7ACC
Accurately ripped (confidence 5) [0334CB18] (AR v1)
Copy OK
Track 7
Filename D:\CD\Destination Anywhere (PHCR-1520)\07 - It's Just Me.wav
Peak level 100.0 %
Extraction speed 4.1 X
Track quality 100.0 %
Test CRC 125F4EB3
Copy CRC 125F4EB3
Accurately ripped (confidence 5) [50DDFD22] (AR v1)
Copy OK
Track 8
Filename D:\CD\Destination Anywhere (PHCR-1520)\08 - Destination Anywhere.wav
Pre-gap length 0:00:00.52
Peak level 100.0 %
Extraction speed 4.3 X
Track quality 100.0 %
Test CRC 70073ABC
Copy CRC 70073ABC
Accurately ripped (confidence 5) [0AC2CE02] (AR v1)
Copy OK
Track 9
Filename D:\CD\Destination Anywhere (PHCR-1520)\09 - Learning How To Fall.wav
Peak level 92.1 %
Extraction speed 4.3 X
Track quality 100.0 %
Test CRC 558B2F7E
Copy CRC 558B2F7E
Accurately ripped (confidence 5) [9C7B5182] (AR v1)
Copy OK
Track 10
Filename D:\CD\Destination Anywhere (PHCR-1520)\10 - Naked.wav
Pre-gap length 0:00:00.49
Peak level 100.0 %
Extraction speed 4.6 X
Track quality 100.0 %
Test CRC C24C88FE
Copy CRC C24C88FE
Accurately ripped (confidence 5) [CB5DF4A5] (AR v1)
Copy OK
Track 11
Filename D:\CD\Destination Anywhere (PHCR-1520)\11 - Little City.wav
Pre-gap length 0:00:00.48
Peak level 100.0 %
Extraction speed 4.7 X
Track quality 100.0 %
Test CRC 0C429559
Copy CRC 0C429559
Accurately ripped (confidence 5) [6245D710] (AR v1)
Copy OK
Track 12
Filename D:\CD\Destination Anywhere (PHCR-1520)\12 - August 7, 4-15.wav
Pre-gap length 0:00:01.08
Peak level 100.0 %
Extraction speed 4.8 X
Track quality 100.0 %
Test CRC C3B9C8B2
Copy CRC C3B9C8B2
Accurately ripped (confidence 5) [A578389C] (AR v1)
Copy OK
Track 13
Filename D:\CD\Destination Anywhere (PHCR-1520)\13 - Cold Hard Heart (Demo) [Extra track for Japan].wav
Pre-gap length 0:00:02.52
Peak level 100.0 %
Extraction speed 5.0 X
Track quality 100.0 %
Test CRC 02BDA07A
Copy CRC 02BDA07A
Accurately ripped (confidence 5) [E2F30DDB] (AR v1)
Copy OK
Track 14
Filename D:\CD\Destination Anywhere (PHCR-1520)\14 - I Talk To Jesus (Demo) [Extra track for Japan].wav
Pre-gap length 0:00:02.52
Peak level 100.0 %
Extraction speed 5.2 X
Track quality 100.0 %
Test CRC 30C077B7
Copy CRC 30C077B7
Accurately ripped (confidence 5) [79071610] (AR v1)
Copy OK
All tracks accurately ripped
No errors occurred
End of status report
==== Log checksum 191C5F4093409E0BBBE1E0F2F7D17410C348E64C7963D965DAC192D15DC5A72A ====
Содержание индексной карты (.CUE)
REM GENRE Rock
REM DATE 1997
REM DISCID EC0FFD0E
REM COMMENT "ExactAudioCopy v1.0b3"
CATALOG 4988011352706
PERFORMER "Jon Bon Jovi"
TITLE "Destination Anywhere (PHCR-1520)"
FILE "01 - Queen Of New Orleans.wav" WAVE
TRACK 01 AUDIO
TITLE "Queen Of New Orleans"
PERFORMER "Jon Bon Jovi"
PREGAP 00:00:37
INDEX 01 00:00:00
TRACK 02 AUDIO
TITLE "Janie, Don't Take Your Love To Town"
PERFORMER "Jon Bon Jovi"
INDEX 00 04:29:61
FILE "02 - Janie, Don't Take Your Love To Town.wav" WAVE
INDEX 01 00:00:00
TRACK 03 AUDIO
TITLE "Midnight In Chelsea"
PERFORMER "Jon Bon Jovi"
INDEX 00 05:17:26
FILE "03 - Midnight In Chelsea.wav" WAVE
INDEX 01 00:00:00
TRACK 04 AUDIO
TITLE "Ugly"
PERFORMER "Jon Bon Jovi"
INDEX 00 04:57:59
FILE "04 - Ugly.wav" WAVE
INDEX 01 00:00:00
TRACK 05 AUDIO
TITLE "Staring At Your Window With A Suitcase In My Hand"
PERFORMER "Jon Bon Jovi"
INDEX 00 03:23:68
FILE "05 - Staring At Your Window With A Suitcase In My Hand.wav" WAVE
INDEX 01 00:00:00
TRACK 06 AUDIO
TITLE "Every Word Was A Piece Of My Heart"
PERFORMER "Jon Bon Jovi"
INDEX 00 04:25:54
FILE "06 - Every Word Was A Piece Of My Heart.wav" WAVE
INDEX 01 00:00:00
FILE "07 - It's Just Me.wav" WAVE
TRACK 07 AUDIO
TITLE "It's Just Me"
PERFORMER "Jon Bon Jovi"
INDEX 01 00:00:00
TRACK 08 AUDIO
TITLE "Destination Anywhere"
PERFORMER "Jon Bon Jovi"
INDEX 00 06:43:33
FILE "08 - Destination Anywhere.wav" WAVE
INDEX 01 00:00:00
FILE "09 - Learning How To Fall.wav" WAVE
TRACK 09 AUDIO
TITLE "Learning How To Fall"
PERFORMER "Jon Bon Jovi"
INDEX 01 00:00:00
TRACK 10 AUDIO
TITLE "Naked"
PERFORMER "Jon Bon Jovi"
INDEX 00 04:03:01
FILE "10 - Naked.wav" WAVE
INDEX 01 00:00:00
TRACK 11 AUDIO
TITLE "Little City"
PERFORMER "Jon Bon Jovi"
INDEX 00 04:41:61
FILE "11 - Little City.wav" WAVE
INDEX 01 00:00:00
TRACK 12 AUDIO
TITLE "August 7, 4:15"
PERFORMER "Jon Bon Jovi"
INDEX 00 04:56:44
FILE "12 - August 7, 4-15.wav" WAVE
INDEX 01 00:00:00
TRACK 13 AUDIO
TITLE "Cold Hard Heart (Demo) [Extra track for Japan]"
PERFORMER "Jon Bon Jovi"
INDEX 00 04:56:61
FILE "13 - Cold Hard Heart (Demo) [Extra track for Japan].wav" WAVE
INDEX 01 00:00:00
TRACK 14 AUDIO
TITLE "I Talk To Jesus (Demo) [Extra track for Japan]"
PERFORMER "Jon Bon Jovi"
INDEX 00 04:42:34
FILE "14 - I Talk To Jesus (Demo) [Extra track for Japan].wav" WAVE
INDEX 01 00:00:00
Download
Сайт не распространяет и не хранит электронные версии произведений, а лишь предоставляет доступ к создаваемому пользователями каталогу ссылок на торрент-файлы, которые содержат только списки хеш-сумм
Как скачивать? (для скачивания .torrent файлов необходима регистрация)
[Профиль]  [ЛС] 

ko1ob ok

Стаж: 11 лет 9 месяцев

Сообщений: 280

ko1ob ok · 29-Апр-13 01:22 (спустя 29 дней)

Дзякую! Вось дргога дыска не хапае. Будзем чакаць.
[Профиль]  [ЛС] 
 
Ответить
Loading...
Error