(OST) Elfen Lied / Эльфийская песнь - 2004 г., FLAC (tracks), lossless (2CD)

Страницы:  1

Ответить
Автор
Сообщение

Ryanclow

RG AniBoter

Стаж: 12 лет 6 месяцев

Сообщений: 3180

Ryanclow · 24-Ноя-11 23:06 (7 лет 7 месяцев назад, ред. 29-Дек-17 21:37)

Эльфийская песньОбщие характеристики:
Производство:
Год выпуска: 2004
Формат:
Частота: 44100ГГц
Продолжительность: 19 треков - 57:38

Альбом:
Открыть
2004 - OST √
OST
Список треков:
01. Lilium ~Opening Version~ [1:33]
02. Katsubou [2:10]
03. Shinkai [2:55]
04. Hana You [1:07]
05. Senkou [2:05]
06. Youran [2:32]
07. Jou Tsumi [1:52]
08. Rinne [1:34]
09. Yakusoku [2:10]
10. Hakuri [2:53]
11. Kyokuu [2:58]
12. Youkou [4:52]
13. Rasen [6:28]
14. Ametsuyu [2:01]
15. Lilium ~Saint Version~ [2:55]

Сингл:
Открыть
2004 - ED √
ED
Список треков:
01. Be Your Girl [4:30]
02. Hoshi Ni Negai Wo [4:18]
03. Be Your Girl (Instrumental) [4:30]
04. Hoshi Ni Negai Wo (Instrumental) [4:15]

Проверка:
Открыть
2004 - OST
ЕАС Лог
Exact Audio Copy V0.99 prebeta 5 from 4. May 2009
EAC extraction logfile from 19. June 2010, 20:07
Various / Elfen Lied OST
Used drive : HL-DT-STDVDRAM GH22LS40 Adapter: 3 ID: 1
Read mode : Secure
Utilize accurate stream : Yes
Defeat audio cache : Yes
Make use of C2 pointers : No
Read offset correction : 667
Overread into Lead-In and Lead-Out : No
Fill up missing offset samples with silence : Yes
Delete leading and trailing silent blocks : No
Null samples used in CRC calculations : Yes
Used interface : Native Win32 interface for Win NT & 2000
Gap handling : Appended to previous track
Used output format : User Defined Encoder
Selected bitrate : 1024 kBit/s
Quality : High
Add ID3 tag : No
Command line compressor : C:\Program Files\Exact Audio Copy\FLAC\FLAC.EXE
Additional command line options : -6 -V -T "ARTIST=%a" -T "TITLE=%t" -T "ALBUM=%g" -T "DATE=%y" -T "TRACKNUMBER=%n" -T "GENRE=%m" -T "COMMENT=%e" %s -o %d
TOC of the extracted CD
Track | Start | Length | Start sector | End sector
---------------------------------------------------------
1 | 0:00.00 | 1:32.42 | 0 | 6941
2 | 1:32.42 | 2:10.16 | 6942 | 16707
3 | 3:42.58 | 2:54.67 | 16708 | 29824
4 | 6:37.50 | 1:06.68 | 29825 | 34842
5 | 7:44.43 | 2:05.01 | 34843 | 44218
6 | 9:49.44 | 2:32.09 | 44219 | 55627
7 | 12:21.53 | 1:51.66 | 55628 | 64018
8 | 14:13.44 | 1:33.73 | 64019 | 71066
9 | 15:47.42 | 2:09.72 | 71067 | 80813
10 | 17:57.39 | 2:53.01 | 80814 | 93789
11 | 20:50.40 | 2:58.02 | 93790 | 107141
12 | 23:48.42 | 4:52.17 | 107142 | 129058
13 | 28:40.59 | 6:28.24 | 129059 | 158182
14 | 35:09.08 | 2:00.42 | 158183 | 167224
15 | 37:09.50 | 2:54.51 | 167225 | 180325
Track 1
Filename C:\EAC Rips\01 Kumiko Noma - Lilium ~Opening Version~.wav
Pre-gap length 0:00:02.00
Peak level 100.0 %
Track quality 100.0 %
Test CRC EA0052EA
Copy CRC EA0052EA
Accurately ripped (confidence 1) [D1967119]
Copy OK
Track 2
Filename C:\EAC Rips\02 Kayo Konishi & Yukio Kondoo - Katsubou.wav
Peak level 100.0 %
Track quality 100.0 %
Test CRC BB250B07
Copy CRC BB250B07
Accurately ripped (confidence 1) [73224CAE]
Copy OK
Track 3
Filename C:\EAC Rips\03 Kayo Konishi & Yukio Kondoo - Shinkai.wav
Peak level 94.3 %
Track quality 100.0 %
Test CRC 4BE0EBE2
Copy CRC 4BE0EBE2
Accurately ripped (confidence 1) [9DBB0F0F]
Copy OK
Track 4
Filename C:\EAC Rips\04 Kayo Konishi & Yukio Kondoo - Hana You.wav
Peak level 90.5 %
Track quality 100.0 %
Test CRC 91D5DA7C
Copy CRC 91D5DA7C
Accurately ripped (confidence 1) [B899E31E]
Copy OK
Track 5
Filename C:\EAC Rips\05 Kayo Konishi & Yukio Kondoo - Senkou.wav
Peak level 100.0 %
Track quality 100.0 %
Test CRC BA96F9F0
Copy CRC BA96F9F0
Accurately ripped (confidence 1) [9FB10064]
Copy OK
Track 6
Filename C:\EAC Rips\06 Kayo Konishi & Yukio Kondoo - Youran.wav
Peak level 91.0 %
Track quality 100.0 %
Test CRC DF4F3A72
Copy CRC DF4F3A72
Accurately ripped (confidence 1) [36277871]
Copy OK
Track 7
Filename C:\EAC Rips\07 Kayo Konishi & Yukio Kondoo - Jou Tsumi.wav
Peak level 94.0 %
Track quality 100.0 %
Test CRC B8E054F9
Copy CRC B8E054F9
Accurately ripped (confidence 1) [4E2F0F9A]
Copy OK
Track 8
Filename C:\EAC Rips\08 Kayo Konishi & Yukio Kondoo - Rinne.wav
Peak level 82.9 %
Track quality 99.8 %
Test CRC AF77FD51
Copy CRC AF77FD51
Accurately ripped (confidence 1) [B22CCB6F]
Copy OK
Track 9
Filename C:\EAC Rips\09 Kayo Konishi & Yukio Kondoo - Yakusoku.wav
Peak level 93.6 %
Track quality 100.0 %
Test CRC 182D7272
Copy CRC 182D7272
Accurately ripped (confidence 1) [AAE097EE]
Copy OK
Track 10
Filename C:\EAC Rips\10 Kayo Konishi & Yukio Kondoo - Hakuri.wav
Peak level 94.0 %
Track quality 99.9 %
Test CRC C071BCFF
Copy CRC C071BCFF
Accurately ripped (confidence 1) [51236DF4]
Copy OK
Track 11
Filename C:\EAC Rips\11 Kayo Konishi & Yukio Kondoo - Kyokuu.wav
Peak level 94.0 %
Track quality 99.7 %
Test CRC 6519944F
Copy CRC 6519944F
Accurately ripped (confidence 1) [95FCB6CA]
Copy OK
Track 12
Filename C:\EAC Rips\12 Kayo Konishi & Yukio Kondoo - Youkou.wav
Peak level 100.0 %
Track quality 99.9 %
Test CRC F6418598
Copy CRC F6418598
Accurately ripped (confidence 1) [53AC2A8E]
Copy OK
Track 13
Filename C:\EAC Rips\13 Kayo Konishi & Yukio Kondoo - Rasen.wav
Peak level 94.0 %
Track quality 99.9 %
Test CRC 1350CF40
Copy CRC 1350CF40
Accurately ripped (confidence 1) [CF3E6C58]
Copy OK
Track 14
Filename C:\EAC Rips\14 Kayo Konishi & Yukio Kondoo - Ametsuyu.wav
Peak level 100.0 %
Track quality 100.0 %
Test CRC 81552AC3
Copy CRC 81552AC3
Accurately ripped (confidence 1) [BC510B8B]
Copy OK
Track 15
Filename C:\EAC Rips\15 GRIFFIN Chorus - Lilium ~Saint Version~.wav
Peak level 83.4 %
Track quality 99.9 %
Test CRC 185D8DCD
Copy CRC 185D8DCD
Accurately ripped (confidence 1) [B13EFEE5]
Copy OK
All tracks accurately ripped
No errors occurred
End of status report
auCDtect Лог
-----------------------
DON'T MODIFY THIS FILE
-----------------------
PERFORMER: auCDtect Task Manager, ver. 1.5.1RC4 build 1.5.1.5
Copyright (c) 2008-2010 y-soft. All rights reserved
http://y-soft.org
ANALYZER: auCDtect: CD records authenticity detector, version 0.8.2
Copyright (c) 2004 Oleg Berngardt. All rights reserved.
Copyright (c) 2004 Alexander Djourik. All rights reserved.
FILE: 05 - Senkou.flac
Size: 15765121 Hash: FB294144DBE3F7D0FF659B6D4C597BAD Accuracy: -m0
Conclusion: CDDA 100%
Signature: F65959630369B117DD6FE1356C4282C1243E087D
FILE: 04 - Hana You.flac
Size: 4022281 Hash: 768BD63393DD0151C50C6AEAA9220DC2 Accuracy: -m0
Conclusion: CDDA 100%
Signature: 22037F2DAA4A4BA160279B6E52613BD64497DB52
FILE: 03 - Shinkai.flac
Size: 16478049 Hash: 874972099FC27803D0FA5645FE2FA407 Accuracy: -m0
Conclusion: CDDA 100%
Signature: B804541D71E02B846A3D7692611B768A752B1209
FILE: 02 - Katsubou.flac
Size: 11366568 Hash: 9ECDA228063495D434C6E46A73FBE4E3 Accuracy: -m0
Conclusion: CDDA 100%
Signature: 46577A517E032C432EB533AD0B3ECD58021E7866
FILE: 01 - Lilium ~Opening Version~.flac
Size: 8574815 Hash: BF27B4BBD5AEE3AF655F822B84917656 Accuracy: -m0
Conclusion: CDDA 100%
Signature: 8F76337FD4AB8B2309B434C81DAAAD9FD0F59F12
FILE: 15 - Lilium ~Saint Version~.flac
Size: 15091642 Hash: 8EEAECEE061E6A949DCCFC9027C0601B Accuracy: -m0
Conclusion: CDDA 100%
Signature: 44F11169AF614FB2CB07688291495B5ACFD2A6EB
FILE: 14 - Ametsuyu.flac
Size: 8836639 Hash: B9F8AC1E3D97740B08B836FAF8650E9A Accuracy: -m0
Conclusion: CDDA 100%
Signature: BA8FD2E1790DAD103C434F912D4743E63353A816
FILE: 13 - Rasen.flac
Size: 35137689 Hash: 70C2E950E4F6D16140289A918672FC83 Accuracy: -m0
Conclusion: CDDA 100%
Signature: 46EF490B85EEF2F7E30C6D887043159B88690A93
FILE: 12 - Youkou.flac
Size: 36577800 Hash: C2FE614F395CEDBA8CEE5B0F7F663B50 Accuracy: -m0
Conclusion: CDDA 99%
Signature: 472C756A19312DF5349FFD2F8471F06A3FD2FB42
FILE: 11 - Kyokuu.flac
Size: 15311394 Hash: F3DBAEF57D5961A3FF14D6EE46A0D8C8 Accuracy: -m0
Conclusion: CDDA 100%
Signature: 41229B84711C86C635EB4BF56F8223C47415EBD7
FILE: 10 - Hakuri.flac
Size: 18439765 Hash: DB6B3D5A4ED5CC6E731519E506B63D16 Accuracy: -m0
Conclusion: CDDA 100%
Signature: 03DD33CC06C1E892EA4EB1E7A194B9C22567E49A
FILE: 09 - Yakusoku.flac
Size: 9965840 Hash: 28D3C5BA30975A3C0E16A958A84E57D6 Accuracy: -m0
Conclusion: CDDA 100%
Signature: 310A28D967031B26D0B585E7145926C36F4FE35D
FILE: 08 - Rinne.flac
Size: 6875670 Hash: 5553235376D6D2B3A6AAC5C754E678A7 Accuracy: -m0
Conclusion: CDDA 100%
Signature: 6C9AECFFF245A316ECBF4750D158733A32205CD1
FILE: 07 - Jou Tsumi.flac
Size: 8969592 Hash: 385A1EFD1B5649EF73E9B468475BF1CB Accuracy: -m0
Conclusion: CDDA 99%
Signature: 20BB3FCB036F588F1E893CD4FCBE175ED6F169CB
FILE: 06 - Youran.flac
Size: 11178678 Hash: 9D19D0E0255C048172E1DD591409AD64 Accuracy: -m0
Conclusion: CDDA 100%
Signature: 1E50C83D35EB0EB91FFED88C5E30B953439DFDA6
Audition Спектр
2004 - ED
ЕАС Лог
Exact Audio Copy V1.0 beta 3 from 29. August 2011
EAC extraction logfile from 23. November 2011, 23:08
Chieko Kawabe / be your girl
Used drive : PLEXTOR DVDR PX-760A Adapter: 2 ID: 1
Read mode : Secure
Utilize accurate stream : Yes
Defeat audio cache : Yes
Make use of C2 pointers : No
Read offset correction : 30
Overread into Lead-In and Lead-Out : No
Fill up missing offset samples with silence : Yes
Delete leading and trailing silent blocks : No
Null samples used in CRC calculations : Yes
Used interface : Native Win32 interface for Win NT & 2000
Gap handling : Appended to previous track
Used output format : User Defined Encoder
Selected bitrate : 1024 kBit/s
Quality : High
Add ID3 tag : No
Command line compressor : C:\Program Files (x86)\Exact Audio Copy\Flac\flac.exe
Additional command line options : -V -8 -T "Genre=%genre%" -T "Artist=%artist%" -T "Title=%title%" -T "Album=%albumtitle%" -T "Date=%year%" -T "Tracknumber=%tracknr%" -T "Comment=%comment%" %source%
TOC of the extracted CD
Track | Start | Length | Start sector | End sector
---------------------------------------------------------
1 | 0:00.00 | 4:30.22 | 0 | 20271
2 | 4:30.22 | 4:18.20 | 20272 | 39641
3 | 8:48.42 | 4:30.28 | 39642 | 59919
4 | 13:18.70 | 4:15.07 | 59920 | 79051
Track 1
Filename C:\RIPs\01 - be your girl.wav
Pre-gap length 0:00:02.00
Peak level 100.0 %
Extraction speed 2.1 X
Track quality 100.0 %
Test CRC 4F993AA8
Copy CRC 4F993AA8
Track not present in AccurateRip database
Copy OK
Track 2
Filename C:\RIPs\02 - Hoshi Ni Negai Wo.wav
Pre-gap length 0:00:02.07
Peak level 100.0 %
Extraction speed 1.9 X
Track quality 99.9 %
Test CRC 2CD3EFC0
Copy CRC 2CD3EFC0
Track not present in AccurateRip database
Copy OK
Track 3
Filename C:\RIPs\03 - be your girl (instrumental).wav
Pre-gap length 0:00:03.30
Peak level 100.0 %
Extraction speed 2.1 X
Track quality 100.0 %
Test CRC E216C459
Copy CRC E216C459
Track not present in AccurateRip database
Copy OK
Track 4
Filename C:\RIPs\04 - Hoshi Ni Negai Wo (Instrumental).wav
Pre-gap length 0:00:02.05
Peak level 100.0 %
Extraction speed 2.1 X
Track quality 100.0 %
Test CRC E5A47893
Copy CRC E5A47893
Track not present in AccurateRip database
Copy OK
None of the tracks are present in the AccurateRip database
No errors occurred
End of status report
---- CUETools DB Plugin V2.1.3
[CTDB TOCID: 2C2PJW2emsWvlyAxiHoLsqeBTMk-] found, Submit result: already submitted
[071a4e78] (1/1) Accurately ripped
==== Log checksum BA836F9D77DFC1209123E0C6A2F505FD36ABC9CD7382672FCD7E2AEC14670834 ====
auCDtect Лог
-----------------------
DON'T MODIFY THIS FILE
-----------------------
PERFORMER: auCDtect Task Manager, ver. 1.5.1RC4 build 1.5.1.5
Copyright (c) 2008-2010 y-soft. All rights reserved
http://y-soft.org
ANALYZER: auCDtect: CD records authenticity detector, version 0.8.2
Copyright (c) 2004 Oleg Berngardt. All rights reserved.
Copyright (c) 2004 Alexander Djourik. All rights reserved.
FILE: 01 - Be Your Girl.flac
Size: 33412736 Hash: 78675F58A97D83387336890597B490A0 Accuracy: -m0
Conclusion: CDDA 100%
Signature: 82A87924614A43F4595E0B4C3891D5256475CF51
FILE: 04 - Hoshi Ni Negai Wo (Instrumental).flac
Size: 30823905 Hash: 7F55064BD819D6711E9A732C6B58375A Accuracy: -m0
Conclusion: CDDA 99%
Signature: E6DB76AA9DD4C9E6C20BA92F9A080B5FEBE70D25
FILE: 03 - Be Your Girl (Instrumental).flac
Size: 32793523 Hash: DEA37DA5E18C8BE9F2A32AA9E1B29EF4 Accuracy: -m0
Conclusion: CDDA 100%
Signature: A9F411A004D3454DD02B6C7128DE8F9080A0FCC3
FILE: 02 - Hoshi Ni Negai Wo.flac
Size: 31579188 Hash: 6CFCDFDD4BCAF1EB420BB55A58FA50A2 Accuracy: -m0
Conclusion: CDDA 100%
Signature: 6B0BCB1C1BED25F7564C0F25DB1B9EDA1020B230
Audition Спектр

Дополнительно: - для альбома гарантируется восстановление исходного образа склеиванием файлов (например, фубаром) и возможность прожига на диск при помощи прилагаемого CUE. Приятного прослушивания
Download
Для скачивания .torrent файлов необходима регистрация
Сайт не распространяет и не хранит электронные версии произведений, а лишь предоставляет доступ к создаваемому пользователями каталогу ссылок на торрент-файлы, которые содержат только списки хеш-сумм
[Профиль]  [ЛС] 

Ягич

Стаж: 10 лет 5 месяцев

Сообщений: 147


Ягич · 30-Ноя-11 21:27 (спустя 5 дней, ред. 30-Ноя-11 21:27)

Прошу прощения, а что изменилось с предыдущей версии?
Печально, если я совсем слеп, но я как-то не увидел, где написано, зачем и почему вдруг произошло обновление.
Если всё же слеп - пошлите меня куда-нибудь почитать про это, пожалуйста.
Спасибо. =)
П. С. Недовольство моей слепотой пойму. =)
[Профиль]  [ЛС] 

Ryanclow

RG AniBoter

Стаж: 12 лет 6 месяцев

Сообщений: 3180

Ryanclow · 01-Дек-11 00:44 (спустя 3 часа)

Ягич
Заменил просто альбомы на более правльные и все.
[Профиль]  [ЛС] 

Ягич

Стаж: 10 лет 5 месяцев

Сообщений: 147


Ягич · 01-Дек-11 17:57 (спустя 17 часов)

Ryanclow, спасибо.
Спрашивать, в чём большая правильность заключается, не буду.
[Профиль]  [ЛС] 

ookamijop

Стаж: 7 лет 9 месяцев

Сообщений: 30

ookamijop · 21-Июл-12 17:31 (спустя 7 месяцев)

спасибо большое,у меня от этой музыки аж сердце разрывается
[Профиль]  [ЛС] 

whiteqwen

Стаж: 7 лет 2 месяца

Сообщений: 4

whiteqwen · 05-Сен-12 23:51 (спустя 1 месяц 15 дней)

Когда-то мне нравилось это аниме, хочу вспомнить детство
[Профиль]  [ЛС] 

MichelDramas

Стаж: 9 лет 2 месяца

Сообщений: 202


MichelDramas · 18-Дек-12 16:41 (спустя 3 месяца 12 дней)

whiteqwen писал(а):
55058981Когда-то мне нравилось это аниме, хочу вспомнить детство
Я тоже вспомню близкие года юности - то ли 5, то ли 10 лет назад смотрел, не помню.
[Профиль]  [ЛС] 

MLF_seeder

Стаж: 8 лет 3 месяца

Сообщений: 20


MLF_seeder · 23-Дек-14 14:42 (спустя 2 года)

ребят, подскажите - а есть ли полная версия Lilium (которая около 3 минут), но не мужскими голосами?
в mp3 у менять есть, но хотелось бы flac! подскажите где взять)
[Профиль]  [ЛС] 

rasul0908

Стаж: 4 года 2 месяца

Сообщений: 7


rasul0908 · 17-Июн-15 23:41 (спустя 5 месяцев 25 дней)

Ryanclow
Ищу музыку из этого анимэ уличный боец 2 1994... Начинается она во время боя Chun Li vs Vega...кажется она играла в японской версии мультфильма это не
KMFDM - Ultra... Там была другая музыка без слов! Года три ищу уже, не нашел не песни не названия! Помогите...!
Вот здесь она играет когда Вега начинает говорить
http://m.youtube.com/watch?v=-CC4OMP-F7s
Было бы классно если б альбом японской версии в lossless был...
[Профиль]  [ЛС] 

ESTRANEO

Стаж: 1 год 6 месяцев

Сообщений: 17

ESTRANEO · 28-Дек-18 20:46 (спустя 3 года 6 месяцев, ред. 28-Дек-18 20:46)

Замечательный soundtrack. Быть может, следует вторично пересмотреть данное аниме.
[Профиль]  [ЛС] 
 
Ответить
Loading...
Error