(Rock, Hard Rock, AOR) REO Speedwagon - Ridin' The Storm Out - 1973 (Mini LP 40 Anniversary ● DSD Mastering 2011), FLAC (image+.cue), lossless

Страницы:  1
Ответить
Автор
Сообщение

rainbow.n

Top Seed 05* 640r

Стаж: 9 лет 9 месяцев

Сообщений: 1212

rainbow.n · 18-Ноя-11 16:00 (7 лет 9 месяцев назад)

REO Speedwagon / Ridin' The Storm Out
Жанр: Rock, Hard Rock, AOR
Страна-производитель диска: Japan
Год издания диска: 1973 (2011)
Издатель (лейбл): Sony Music
Номер по каталогу: EICP-1482
Страна: USA
Аудиокодек: FLAC (*.flac)
Тип рипа: image+.cue
Битрейт аудио: lossless
Источник (релизер): Rip by ALLexxess
Наличие сканов в содержимом раздачи: да
Треклист:
01. Ridin' The Storm Out
02. Whiskey Night
03. Oh Woman
04. Find My Fortune
05. Open Up
06. Movin'
07. Son Of A Poor Man
08. Start A New Life
09. It's Everywhere
10. Without Expression (Don't Be The Man)
Лог создания рипа
Exact Audio Copy V1.0 beta 3 from 29. August 2011
EAC extraction logfile from 15. November 2011, 17:03
REO Speedwagon / Ridin' The Storm Out
Used drive : HL-DT-STDVDRAM GSA-H60N Adapter: 2 ID: 0
Read mode : Secure
Utilize accurate stream : Yes
Defeat audio cache : Yes
Make use of C2 pointers : No
Read offset correction : 667
Overread into Lead-In and Lead-Out : No
Fill up missing offset samples with silence : Yes
Delete leading and trailing silent blocks : No
Null samples used in CRC calculations : Yes
Used interface : Native Win32 interface for Win NT & 2000
Used output format : Internal WAV Routines
Sample format : 44.100 Hz; 16 Bit; Stereo
TOC of the extracted CD
Track | Start | Length | Start sector | End sector
---------------------------------------------------------
1 | 0:00.00 | 4:12.20 | 0 | 18919
2 | 4:12.20 | 4:43.49 | 18920 | 40193
3 | 8:55.69 | 2:48.00 | 40194 | 52793
4 | 11:43.69 | 2:53.38 | 52794 | 65806
5 | 14:37.32 | 3:33.64 | 65807 | 81845
6 | 18:11.21 | 3:21.38 | 81846 | 96958
7 | 21:32.59 | 3:44.20 | 96959 | 113778
8 | 25:17.04 | 3:49.74 | 113779 | 131027
9 | 29:07.03 | 3:25.73 | 131028 | 146475
10 | 32:33.01 | 3:53.48 | 146476 | 163998
Range status and errors
Selected range
Filename C:\Documents and Settings\Admin\Рабочий стол\Lossless Galaxy Rip by ALLexxess\REO Speedwagon 40 Anniversary Sony Music Japan 2011\1973 Ridin' The Storm Out\REO Speedwagon - Ridin' The Storm Out.wav
Peak level 100.0 %
Extraction speed 5.5 X
Range quality 100.0 %
Test CRC 7C78C441
Copy CRC 7C78C441
Copy OK
No errors occurred
AccurateRip summary
Track 1 not present in database
Track 2 not present in database
Track 3 not present in database
Track 4 not present in database
Track 5 not present in database
Track 6 not present in database
Track 7 not present in database
Track 8 not present in database
Track 9 not present in database
Track 10 not present in database
None of the tracks are present in the AccurateRip database
End of status report
==== Log checksum CE74155445724D06757B8B7D4C33871F8B23B9691FA3261BDCBFAD0FED1C9044 ====
Содержание индексной карты (.CUE)
REM GENRE "Rock / Hard Rock / Arena Rock / AOR"
REM DATE 1973
REM DISCID 96088A0A
REM COMMENT "ExactAudioCopy v1.0b3"
PERFORMER "REO Speedwagon"
TITLE "Ridin' The Storm Out"
FILE "REO Speedwagon - Ridin' The Storm Out.flac" WAVE
TRACK 01 AUDIO
TITLE "Ridin' The Storm Out"
PERFORMER "REO Speedwagon"
INDEX 01 00:00:00
TRACK 02 AUDIO
TITLE "Whiskey Night"
PERFORMER "REO Speedwagon"
INDEX 01 04:12:20
TRACK 03 AUDIO
TITLE "Oh Woman"
PERFORMER "REO Speedwagon"
INDEX 01 08:55:69
TRACK 04 AUDIO
TITLE "Find My Fortune"
PERFORMER "REO Speedwagon"
INDEX 01 11:43:69
TRACK 05 AUDIO
TITLE "Open Up"
PERFORMER "REO Speedwagon"
INDEX 01 14:37:32
TRACK 06 AUDIO
TITLE "Movin'"
PERFORMER "REO Speedwagon"
INDEX 00 18:10:09
INDEX 01 18:11:21
TRACK 07 AUDIO
TITLE "Son Of A Poor Man"
PERFORMER "REO Speedwagon"
INDEX 01 21:32:59
TRACK 08 AUDIO
TITLE "Start A New Life"
PERFORMER "REO Speedwagon"
INDEX 01 25:17:04
TRACK 09 AUDIO
TITLE "It's Everywhere"
PERFORMER "REO Speedwagon"
INDEX 01 29:07:03
TRACK 10 AUDIO
TITLE "Without Expression (Don't Be The Man)"
PERFORMER "REO Speedwagon"
INDEX 01 32:33:01
Лог проверки качества
-----------------------
DON'T MODIFY THIS FILE
-----------------------
PERFORMER: auCDtect Task Manager, ver. 1.5.1RC3 build 1.5.1.4
Copyright (c) 2008-2010 y-soft. All rights reserved
http://y-soft.org
ANALYZER: auCDtect: CD records authenticity detector, version 0.8.2
Copyright (c) 2004 Oleg Berngardt. All rights reserved.
Copyright (c) 2004 Alexander Djourik. All rights reserved.
FILE: REO Speedwagon - Ridin' The Storm Out.flac
Size: 248408468 Hash: FBCAEB8C39D22900A4AD40B456710EC5 Accuracy: -m0
Conclusion: CDDA 99%
Signature: F47B1943151E0541CD2FC5193655A35B40D4A384
FILE: REO Speedwagon - Ridin' The Storm Out.wav
Size: 385725692 Hash: FBCAEB8C39D22900A4AD40B456710EC5 Accuracy: -m0
Conclusion: CDDA 99%
Signature: A2810EBB8F4618F6657469D708D823C7EE6B8581
Скриншот спектра частот, Matrix
Download
Сайт не распространяет и не хранит электронные версии произведений, а лишь предоставляет доступ к создаваемому пользователями каталогу ссылок на торрент-файлы, которые содержат только списки хеш-сумм
Как скачивать? (для скачивания .torrent файлов необходима регистрация)
[Профиль]  [ЛС] 

headmotor

Стаж: 8 лет 7 месяцев

Сообщений: 1868

headmotor · 13-Июл-16 18:13 (спустя 4 года 7 месяцев)

Замер динамического диапазона
foobar2000 1.3.10 / Замер динамического диапазона (DR) 1.1.1
Дата отчёта: 2016-07-13 22:12:22
--------------------------------------------------------------------------------
Анализ: REO Speedwagon / Ridin' The Storm Out
--------------------------------------------------------------------------------
DR         Пики         RMS           Продолжительность трека
--------------------------------------------------------------------------------
DR8 0.00 дБ -9.25 дБ 4:12 01-Ridin' The Storm Out
DR8 0.00 дБ -9.73 дБ 4:44 02-Whiskey Night
DR8 0.00 дБ -8.93 дБ 2:48 03-Oh Woman
DR9 0.00 дБ -10.68 дБ 2:54 04-Find My Fortune
DR8 0.00 дБ -9.78 дБ 3:34 05-Open Up
DR9 0.00 дБ -10.07 дБ 3:22 06-Movin'
DR8 -0.04 дБ -9.12 дБ 3:44 07-Son Of A Poor Man
DR8 -0.04 дБ -10.55 дБ 3:50 08-Start A New Life
DR8 0.00 дБ -9.46 дБ 3:26 09-It's Everywhere
DR8 -0.04 дБ -10.46 дБ 3:54 10-Without Expression (Don't Be The Man)
--------------------------------------------------------------------------------
Количество треков: 10
Реальные значения DR: DR8
Частота: 44100 Гц
Каналов: 2
Разрядность: 16
Битрейт: 909 кбит/с
Кодек: FLAC
================================================================================
[Профиль]  [ЛС] 

V.V.Smoke

Стаж: 8 лет 3 месяца

Сообщений: 24

V.V.Smoke · 28-Июл-18 10:54 (спустя 2 года, ред. 28-Июл-18 10:54)

Всё конечно хорошо, но как то для 40 Anniversary рановато. 40 лет будет только в 2013-ом )))
[Профиль]  [ЛС] 

Senay10

Стаж: 4 года 6 месяцев

Сообщений: 90


Senay10 · 17-Июл-19 11:18 (спустя 11 месяцев)

V.V.Smoke писал(а):
75727903Всё конечно хорошо, но как то для 40 Anniversary рановато. 40 лет будет только в 2013-ом )))
первый альбом вышел в 1971. Наверное, в связи с этим юбилейный перевыпуск всего
[Профиль]  [ЛС] 
 
Ответить
Loading...
Error