(Melodic Heavy Metal) Angelica - Angelica - 1989 (Intense Records CD09061), FLAC (tracks+.cue), lossless

Страницы:  1
Ответить
Автор
Сообщение

Ready.zp

Moderator gray

Стаж: 10 лет 10 месяцев

Сообщений: 5372

Ready.zp · 27-Дек-11 11:34 (7 лет 7 месяцев назад)

Angelica - Angelica
Жанр: Melodic Heavy Metal
Год издания диска: 1989
Страна-производитель диска: Canada
Издатель (лейбл): Intense Records
Номер по каталогу: CD09061
Страна: Canada
Аудио кодек: FLAC (*.flac)
Тип рипа: tracks+.cue
Битрейт аудио: lossless
Продолжительность: 00:42:41
Источник (релизер): Neonsign
Наличие сканов в содержимом раздачи: да
Треклист:
01. There's Only One Hero 04:05
02. Are You Satisfied 03:30
03. I Believe 03:45
04. Danger Zone 03:42
05. Shine On Me 03:05
06. Only A Man 03:40
07. One Step At A Time 03:31
08. Will I Ever Learn 03:20
09. Take Me 03:32
10. Ahh! (instrumental) 03:00
11. S.O.S. 03:50
12. Face to Face 03:23
Лог создания рипа
Exact Audio Copy V0.99 prebeta 5 from 4. May 2009
EAC extraction logfile from 28. December 2010, 16:35
Angelica / Angelica
Used drive : ATAPI DVD D DH16D2S Adapter: 0 ID: 2
Read mode : Secure
Utilize accurate stream : Yes
Defeat audio cache : Yes
Make use of C2 pointers : No
Read offset correction : 6
Overread into Lead-In and Lead-Out : No
Fill up missing offset samples with silence : Yes
Delete leading and trailing silent blocks : No
Null samples used in CRC calculations : Yes
Used interface : Native Win32 interface for Win NT & 2000
Gap handling : Appended to previous track
Used output format : User Defined Encoder
Selected bitrate : 320 kBit/s
Quality : High
Add ID3 tag : Yes
Command line compressor : C:\Program Files\FLAC\flac.exe
Additional command line options : -V -8 -T "artist=%a" -T "title=%t" -T "album=%g" -T "date=%y" -T "tracknumber=%n" -T "genre=%m" %s
TOC of the extracted CD
Track | Start | Length | Start sector | End sector
---------------------------------------------------------
1 | 0:00.60 | 4:08.35 | 60 | 18694
2 | 4:09.20 | 3:27.12 | 18695 | 34231
3 | 7:36.32 | 3:48.20 | 34232 | 51351
4 | 11:24.52 | 3:45.68 | 51352 | 68294
5 | 15:10.45 | 2:58.12 | 68295 | 81656
6 | 18:08.57 | 3:41.28 | 81657 | 98259
7 | 21:50.10 | 3:39.05 | 98260 | 114689
8 | 25:29.15 | 3:23.57 | 114690 | 129971
9 | 28:52.72 | 3:34.33 | 129972 | 146054
10 | 32:27.30 | 3:02.67 | 146055 | 159771
11 | 35:30.22 | 3:45.20 | 159772 | 176666
12 | 39:15.42 | 3:25.43 | 176667 | 192084
Track 1
Filename C:\Users\Frank\Music\Ripped Albums\Angelica - Angelica (1989) Flac Level 8\Angelica - 01 - There's Only One Hero.wav
Pre-gap length 0:00:02.80
Peak level 89.0 %
Track quality 100.0 %
Test CRC 7605F923
Copy CRC 7605F923
Track not present in AccurateRip database
Copy OK
Track 2
Filename C:\Users\Frank\Music\Ripped Albums\Angelica - Angelica (1989) Flac Level 8\Angelica - 02 - Are You Satisfied.wav
Peak level 94.1 %
Track quality 100.0 %
Test CRC 4B8991F9
Copy CRC 4B8991F9
Cannot be verified as accurate (confidence 1) [945E7FC7], AccurateRip returned [D7492F7F]
Copy OK
Track 3
Filename C:\Users\Frank\Music\Ripped Albums\Angelica - Angelica (1989) Flac Level 8\Angelica - 03 - I Believe.wav
Pre-gap length 0:00:00.89
Peak level 90.1 %
Track quality 100.0 %
Test CRC 71EB37E3
Copy CRC 71EB37E3
Cannot be verified as accurate (confidence 1) [99E4AE48], AccurateRip returned [E05807E6]
Copy OK
Track 4
Filename C:\Users\Frank\Music\Ripped Albums\Angelica - Angelica (1989) Flac Level 8\Angelica - 04 - Danger Zone.wav
Pre-gap length 0:00:01.40
Peak level 81.4 %
Track quality 100.0 %
Test CRC 954587CE
Copy CRC 954587CE
Track not present in AccurateRip database
Copy OK
Track 5
Filename C:\Users\Frank\Music\Ripped Albums\Angelica - Angelica (1989) Flac Level 8\Angelica - 05 - Shine On Me.wav
Pre-gap length 0:00:00.97
Peak level 84.5 %
Track quality 100.0 %
Test CRC 6457C6F5
Copy CRC 6457C6F5
Track not present in AccurateRip database
Copy OK
Track 6
Filename C:\Users\Frank\Music\Ripped Albums\Angelica - Angelica (1989) Flac Level 8\Angelica - 06 - Only A Man.wav
Peak level 84.6 %
Track quality 100.0 %
Test CRC 7E818D22
Copy CRC 7E818D22
Track not present in AccurateRip database
Copy OK
Track 7
Filename C:\Users\Frank\Music\Ripped Albums\Angelica - Angelica (1989) Flac Level 8\Angelica - 07 - One Step At A Time.wav
Pre-gap length 0:00:00.86
Peak level 85.5 %
Track quality 100.0 %
Test CRC 74CE557C
Copy CRC 74CE557C
Track not present in AccurateRip database
Copy OK
Track 8
Filename C:\Users\Frank\Music\Ripped Albums\Angelica - Angelica (1989) Flac Level 8\Angelica - 08 - Will I Ever Learn.wav
Peak level 88.5 %
Track quality 100.0 %
Test CRC F1D56518
Copy CRC F1D56518
Track not present in AccurateRip database
Copy OK
Track 9
Filename C:\Users\Frank\Music\Ripped Albums\Angelica - Angelica (1989) Flac Level 8\Angelica - 09 - Take Me.wav
Pre-gap length 0:00:00.96
Peak level 93.7 %
Track quality 100.0 %
Test CRC 56CF91C4
Copy CRC 56CF91C4
Track not present in AccurateRip database
Copy OK
Track 10
Filename C:\Users\Frank\Music\Ripped Albums\Angelica - Angelica (1989) Flac Level 8\Angelica - 10 - Ahh.wav
Pre-gap length 0:00:00.93
Peak level 86.5 %
Track quality 100.0 %
Test CRC C9EFDDB6
Copy CRC C9EFDDB6
Track not present in AccurateRip database
Copy OK
Track 11
Filename C:\Users\Frank\Music\Ripped Albums\Angelica - Angelica (1989) Flac Level 8\Angelica - 11 - S.O.S..wav
Pre-gap length 0:00:01.26
Peak level 91.5 %
Track quality 100.0 %
Test CRC 62B679D3
Copy CRC 62B679D3
Track not present in AccurateRip database
Copy OK
Track 12
Filename C:\Users\Frank\Music\Ripped Albums\Angelica - Angelica (1989) Flac Level 8\Angelica - 12 - Face To Face.wav
Peak level 84.9 %
Track quality 99.9 %
Test CRC 86F4E573
Copy CRC 86F4E573
Track not present in AccurateRip database
Copy OK
2 track(s) could not be verified as accurate
10 track(s) not present in the AccurateRip database
No tracks could be verified as accurate
You may have a different pressing from the one(s) in the database
No errors occurred
End of status report
Содержание индексной карты (.CUE)
REM GENRE Metal
REM DATE 1989
REM DISCID 950A010C
REM COMMENT "ExactAudioCopy v0.99pb5"
FILE "Angelica - Angelica (1989) Flac Level 8\Angelica - 01 - There's Only One Hero.wav" WAVE
TRACK 01 AUDIO
PREGAP 00:00:60
INDEX 01 00:00:00
FILE "Angelica - Angelica (1989) Flac Level 8\Angelica - 02 - Are You Satisfied.wav" WAVE
TRACK 02 AUDIO
INDEX 01 00:00:00
TRACK 03 AUDIO
INDEX 00 03:26:20
FILE "Angelica - Angelica (1989) Flac Level 8\Angelica - 03 - I Believe.wav" WAVE
INDEX 01 00:00:00
TRACK 04 AUDIO
INDEX 00 03:46:65
FILE "Angelica - Angelica (1989) Flac Level 8\Angelica - 04 - Danger Zone.wav" WAVE
INDEX 01 00:00:00
TRACK 05 AUDIO
INDEX 00 03:44:70
FILE "Angelica - Angelica (1989) Flac Level 8\Angelica - 05 - Shine On Me.wav" WAVE
INDEX 01 00:00:00
FILE "Angelica - Angelica (1989) Flac Level 8\Angelica - 06 - Only A Man.wav" WAVE
TRACK 06 AUDIO
INDEX 01 00:00:00
TRACK 07 AUDIO
INDEX 00 03:40:38
FILE "Angelica - Angelica (1989) Flac Level 8\Angelica - 07 - One Step At A Time.wav" WAVE
INDEX 01 00:00:00
FILE "Angelica - Angelica (1989) Flac Level 8\Angelica - 08 - Will I Ever Learn.wav" WAVE
TRACK 08 AUDIO
INDEX 01 00:00:00
TRACK 09 AUDIO
INDEX 00 03:22:60
FILE "Angelica - Angelica (1989) Flac Level 8\Angelica - 09 - Take Me.wav" WAVE
INDEX 01 00:00:00
TRACK 10 AUDIO
INDEX 00 03:33:38
FILE "Angelica - Angelica (1989) Flac Level 8\Angelica - 10 - Ahh.wav" WAVE
INDEX 01 00:00:00
TRACK 11 AUDIO
INDEX 00 03:01:47
FILE "Angelica - Angelica (1989) Flac Level 8\Angelica - 11 - S.O.S..wav" WAVE
INDEX 01 00:00:00
FILE "Angelica - Angelica (1989) Flac Level 8\Angelica - 12 - Face To Face.wav" WAVE
TRACK 12 AUDIO
INDEX 01 00:00:00
Лог проверки качества
-----------------------
DON'T MODIFY THIS FILE
-----------------------
PERFORMER: auCDtect Task Manager, ver. 1.5.1RC4 build 1.5.1.5
Copyright (c) 2008-2010 y-soft. All rights reserved
http://y-soft.org
ANALYZER: auCDtect: CD records authenticity detector, version 0.8.2
Copyright (c) 2004 Oleg Berngardt. All rights reserved.
Copyright (c) 2004 Alexander Djourik. All rights reserved.
FILE: Angelica - 12 - Face To Face.flac
Size: 24472388 Hash: 59E3762F7CACF90C4C4C7E11711A18C5 Accuracy: -m0
Conclusion: MPEG 91%
Signature: 30AE5F080E716184CF261C2DE54D3DB0E5004408
FILE: Angelica - 11 - S.O.S..flac
Size: 27008805 Hash: 27ACF000E5869DEE59E95E71FD140E36 Accuracy: -m0
Conclusion: MPEG 73%
Signature: 40B4604C677935FFA9ACE9FF6CCDC2AE15F4BD68
FILE: Angelica - 10 - Ahh.flac
Size: 21240719 Hash: 623ED486099E8E500D7E62757D2AE3A9 Accuracy: -m0
Conclusion: CDDA 100%
Signature: 437935BF258A81CA5691C5014E38D54D53DD63C3
FILE: Angelica - 09 - Take Me.flac
Size: 24799424 Hash: 2CF4E3DAB82D3BFCDA3C73BE795D9772 Accuracy: -m0
Conclusion: MPEG 73%
Signature: B569C5940177A5FFE4559A1FA6C9EEBC08EB929B
FILE: Angelica - 08 - Will I Ever Learn.flac
Size: 24641478 Hash: 56D5C7FCF53C88D3611AC9E11069BC67 Accuracy: -m0
Conclusion: CDDA 100%
Signature: DD51C836320635CDB9CEA6B7CB19EC219478FCC2
FILE: Angelica - 07 - One Step At A Time.flac
Size: 26930819 Hash: 34266D4C8DED2DE40B4188BBB700B280 Accuracy: -m0
Conclusion: MPEG 100%
Signature: 0A5D612C8244395C6D859416206E61B02D67FFCF
FILE: Angelica - 06 - Only A Man.flac
Size: 26895788 Hash: 2093D586D4D3AF0E6DC84276DEE4E069 Accuracy: -m0
Conclusion: CDDA 99%
Signature: 267A6EEFCA486C15F75E8A11992686F45C028A3C
FILE: Angelica - 05 - Shine On Me.flac
Size: 20877067 Hash: 66AC4D844BAF80112A3AB5F77672567E Accuracy: -m0
Conclusion: CDDA 100%
Signature: 0FC618F5AC4A1BC149C66E89C11BA5088BD4C13D
FILE: Angelica - 04 - Danger Zone.flac
Size: 27370189 Hash: FEDD9233AC8FEFA12E427CF75CC5C7FC Accuracy: -m0
Conclusion: MPEG 91%
Signature: 8AA4638F4E2195B77E8764C4A1BB7F1CB5ACFDA1
FILE: Angelica - 03 - I Believe.flac
Size: 28720322 Hash: B0F1146782658F85598E8ED91102F6FB Accuracy: -m0
Conclusion: CDDA 99%
Signature: 13F0D4A8F1DF663A5D2453A7BA853D4292A782C4
FILE: Angelica - 02 - Are You Satisfied.flac
Size: 25148565 Hash: 9827466AC4F4D5DAC2E78A95007FF4DB Accuracy: -m0
Conclusion: MPEG 91%
Signature: C68F778B1E85E2CE0454B39F97BE359321CB2F09
FILE: Angelica - 01 - There's Only One Hero.flac
Size: 29219018 Hash: FC149D43438123FCA6DBCCA85ACFE6E7 Accuracy: -m0
Conclusion: MPEG 73%
Signature: 62D20F3EDCE517BFCB5B6D9A4F75ED0BD6A4650B
Доп. информация
Состав
Rob Rock - lead vocals
Ken Tamplin - vocals on "Face to Face" & backing vocals
Dennis Cameron - fuitars
Scott Ernest - drums
Robert Pallen - bass
Mrac Hugenberger – keyboards
Back, Spectrogram (выборочно)
Download
Сайт не распространяет и не хранит электронные версии произведений, а лишь предоставляет доступ к создаваемому пользователями каталогу ссылок на торрент-файлы, которые содержат только списки хеш-сумм
Как скачивать? (для скачивания .torrent файлов необходима регистрация)
[Профиль]  [ЛС] 

StallmanWasRight

Стаж: 5 лет 3 месяца

Сообщений: 1712

StallmanWasRight · 21-Апр-17 19:48 (спустя 5 лет 3 месяца, ред. 21-Апр-17 19:48)

Ready.zp писал(а):
ссылка на данный момент дохлая
…как и та, что перед ней
[Профиль]  [ЛС] 

LegsDiamond

Стаж: 5 лет 8 месяцев

Сообщений: 70


LegsDiamond · 16-Июл-19 01:27 (спустя 2 года 2 месяца)

Спасибо много
[Профиль]  [ЛС] 
 
Ответить
Loading...
Error