(OST) Берсерк / Berserk - 1997г., FLAC (tracks+.cue), lossless

Страницы:  1

Ответить
Автор
Сообщение

intellect

Стаж: 14 лет 8 месяцев

Сообщений: 45974


intellect · 01-Дек-15 22:34 (3 года 7 месяцев назад, ред. 10-Дек-15 21:21)


Berserk

Год выпуска: 1997 г.
Страна: Япония
Аудио кодек: FLAC
Тип рипа: tracks+.cue
Продолжительность: 34:12
Треклист
01. BEHELIT
02. Ghosts
03. Ball
04. Gats
05. Murder
06. Fear
07. Monster
08. EARTH
09. BERSERK~Forces~ (TV Version)
10. TELL ME WHY (TV Version)
11. Waiting so long (TV Version)
log
Exact Audio Copy V1.0 beta 3 from 29. August 2011
EAC extraction logfile from 1. December 2015, 21:28
Hirasawa Susumu / BERSERK ORIGINAL SOUNDTRACK
Used drive : HL-DT-STDVDRAM GH22NS50 Adapter: 3 ID: 1
Read mode : Secure
Utilize accurate stream : Yes
Defeat audio cache : Yes
Make use of C2 pointers : No
Read offset correction : 667
Overread into Lead-In and Lead-Out : No
Fill up missing offset samples with silence : Yes
Delete leading and trailing silent blocks : No
Null samples used in CRC calculations : Yes
Used interface : Native Win32 interface for Win NT & 2000
Gap handling : Appended to previous track
Used output format : User Defined Encoder
Selected bitrate : 1024 kBit/s
Quality : High
Add ID3 tag : No
Command line compressor : C:\Program Files\Exact Audio Copy\Flac\flac.exe
Additional command line options : -V -8 -T "Genre=%genre%" -T "Artist=%artist%" -T "Title=%title%" -T "Album=%albumtitle%" -T "Date=%year%" -T "Tracknumber=%tracknr%" -T "Comment=%comment%" %source%
TOC of the extracted CD
Track | Start | Length | Start sector | End sector
---------------------------------------------------------
1 | 0:00.00 | 1:55.53 | 0 | 8677
2 | 1:55.53 | 1:41.60 | 8678 | 16312
3 | 3:37.38 | 1:08.55 | 16313 | 21467
4 | 4:46.18 | 3:34.72 | 21468 | 37589
5 | 8:21.15 | 9:29.08 | 37590 | 80272
6 | 17:50.23 | 3:26.12 | 80273 | 95734
7 | 21:16.35 | 4:03.63 | 95735 | 114022
8 | 25:20.23 | 4:23.40 | 114023 | 133787
9 | 29:43.63 | 1:56.52 | 133788 | 142539
10 | 31:40.40 | 1:15.55 | 142540 | 148219
11 | 32:56.20 | 1:22.05 | 148220 | 154374
Track 1
Filename D:\1\01. BEHELIT.wav
Pre-gap length 0:00:02.00
Peak level 69.4 %
Extraction speed 0.8 X
Track quality 100.0 %
Test CRC 0044EC40
Copy CRC 0044EC40
Cannot be verified as accurate (confidence 3) [B107E88E], AccurateRip returned [D2D83279] (AR v2)
Copy OK
Track 2
Filename D:\1\02. Ghosts.wav
Pre-gap length 0:00:00.33
Peak level 100.0 %
Extraction speed 0.8 X
Track quality 100.0 %
Test CRC 241AC982
Copy CRC 241AC982
Cannot be verified as accurate (confidence 3) [9B36C528], AccurateRip returned [49FC00E8] (AR v2)
Copy OK
Track 3
Filename D:\1\03. Ball.wav
Pre-gap length 0:00:00.28
Peak level 81.7 %
Extraction speed 0.6 X
Track quality 99.8 %
Test CRC 67445FDC
Copy CRC 67445FDC
Cannot be verified as accurate (confidence 3) [4117B1BC], AccurateRip returned [DD208AC3] (AR v2)
Copy OK
Track 4
Filename D:\1\04. Gats.wav
Pre-gap length 0:00:01.30
Peak level 72.0 %
Extraction speed 1.1 X
Track quality 100.0 %
Test CRC F70F8E30
Copy CRC F70F8E30
Cannot be verified as accurate (confidence 3) [4586AD11], AccurateRip returned [65634B66] (AR v2)
Copy OK
Track 5
Filename D:\1\05. Murder.wav
Peak level 100.0 %
Extraction speed 1.4 X
Track quality 100.0 %
Test CRC F2B95663
Copy CRC F2B95663
Cannot be verified as accurate (confidence 3) [56E5042A], AccurateRip returned [0B4DC489] (AR v2)
Copy OK
Track 6
Filename D:\1\06. Fear.wav
Pre-gap length 0:00:00.35
Peak level 100.0 %
Extraction speed 1.2 X
Track quality 99.9 %
Test CRC 94FF518C
Copy CRC 94FF518C
Cannot be verified as accurate (confidence 3) [C40A41E1], AccurateRip returned [5AF61E81] (AR v2)
Copy OK
Track 7
Filename D:\1\07. Monster.wav
Pre-gap length 0:00:00.35
Peak level 93.7 %
Extraction speed 1.5 X
Track quality 100.0 %
Test CRC 1E68358E
Copy CRC 1E68358E
Cannot be verified as accurate (confidence 3) [153E7954], AccurateRip returned [D18C8670] (AR v2)
Copy OK
Track 8
Filename D:\1\08. EARTH.wav
Pre-gap length 0:00:00.33
Peak level 100.0 %
Extraction speed 1.6 X
Track quality 100.0 %
Test CRC 9472FDAB
Copy CRC 9472FDAB
Cannot be verified as accurate (confidence 3) [8E9A89D3], AccurateRip returned [B722E070] (AR v2)
Copy OK
Track 9
Filename D:\1\09. BERSERK~Forces~ (TV Version).wav
Peak level 100.0 %
Extraction speed 1.5 X
Track quality 100.0 %
Test CRC 63BC63DA
Copy CRC 63BC63DA
Cannot be verified as accurate (confidence 3) [E41E5807], AccurateRip returned [08873989] (AR v2)
Copy OK
Track 10
Filename D:\1\10. TELL ME WHY (TV Version).wav
Pre-gap length 0:00:03.32
Peak level 93.6 %
Extraction speed 1.3 X
Track quality 100.0 %
Test CRC DB8A91B1
Copy CRC DB8A91B1
Cannot be verified as accurate (confidence 3) [21C0E2CF], AccurateRip returned [D355B79D] (AR v2)
Copy OK
Track 11
Filename D:\1\11. Waiting so long (TV Version).wav
Pre-gap length 0:00:00.40
Peak level 100.0 %
Extraction speed 1.4 X
Track quality 100.0 %
Test CRC C1FEA825
Copy CRC C1FEA825
Cannot be verified as accurate (confidence 3) [8F91E666], AccurateRip returned [C96B858C] (AR v2)
Copy OK
No tracks could be verified as accurate
You may have a different pressing from the one(s) in the database
No errors occurred
End of status report
==== Log checksum D18DF8A3FD04332E104F90A7AA2E8E399EF6DCEFAF689B7E8760C4B2D79A250D ====
cue
REM GENRE Soundtrack
REM DATE 1997
REM DISCID 91080A0B
REM COMMENT "ExactAudioCopy v1.0b3"
PERFORMER "Hirasawa Susumu"
TITLE "BERSERK ORIGINAL SOUNDTRACK"
FILE "01. BEHELIT.wav" WAVE
TRACK 01 AUDIO
TITLE "BEHELIT"
PERFORMER "Hirasawa Susumu"
INDEX 01 00:00:00
TRACK 02 AUDIO
TITLE "Ghosts"
PERFORMER "Hirasawa Susumu"
INDEX 00 01:55:20
FILE "02. Ghosts.wav" WAVE
INDEX 01 00:00:00
TRACK 03 AUDIO
TITLE "Ball"
PERFORMER "Hirasawa Susumu"
INDEX 00 01:41:32
FILE "03. Ball.wav" WAVE
INDEX 01 00:00:00
TRACK 04 AUDIO
TITLE "Gats"
PERFORMER "Hirasawa Susumu"
INDEX 00 01:07:25
FILE "04. Gats.wav" WAVE
INDEX 01 00:00:00
FILE "05. Murder.wav" WAVE
TRACK 05 AUDIO
TITLE "Murder"
PERFORMER "Hirasawa Susumu"
INDEX 01 00:00:00
TRACK 06 AUDIO
TITLE "Fear"
PERFORMER "Hirasawa Susumu"
INDEX 00 09:28:48
FILE "06. Fear.wav" WAVE
INDEX 01 00:00:00
TRACK 07 AUDIO
TITLE "Monster"
PERFORMER "Hirasawa Susumu"
INDEX 00 03:25:52
FILE "07. Monster.wav" WAVE
INDEX 01 00:00:00
TRACK 08 AUDIO
TITLE "EARTH"
PERFORMER "Hirasawa Susumu"
INDEX 00 04:03:30
FILE "08. EARTH.wav" WAVE
INDEX 01 00:00:00
FILE "09. BERSERK~Forces~ (TV Version).wav" WAVE
TRACK 09 AUDIO
TITLE "BERSERK~Forces~ (TV Version)"
PERFORMER "Hirasawa Susumu"
INDEX 01 00:00:00
TRACK 10 AUDIO
TITLE "TELL ME WHY (TV Version)"
PERFORMER "PENPALS"
INDEX 00 01:53:20
FILE "10. TELL ME WHY (TV Version).wav" WAVE
INDEX 01 00:00:00
TRACK 11 AUDIO
TITLE "Waiting so long (TV Version)"
PERFORMER "Silver Fins"
INDEX 00 01:15:15
FILE "11. Waiting so long (TV Version).wav" WAVE
INDEX 01 00:00:00
Download
Для скачивания .torrent файлов необходима регистрация
Сайт не распространяет и не хранит электронные версии произведений, а лишь предоставляет доступ к создаваемому пользователями каталогу ссылок на торрент-файлы, которые содержат только списки хеш-сумм
[Профиль]  [ЛС] 

tumgho

Стаж: 8 лет 11 месяцев

Сообщений: 38


tumgho · 26-Июл-16 20:33 (спустя 7 месяцев)

Так wav или flac? и чета маловат размер и для того и для другого. Больше на mp3 смахивает
[Профиль]  [ЛС] 
 
Ответить
Loading...
Error